Penny Dreadful (2014)

Dabované seriály do češtiny a slovenštiny
Česká a slovenská tvorba
Pravidla fóra
► Zákaz vytváření duplicitních témat, používejte funkci HLEDAT
► Témata musí obsahovat český i anglický název a rok uvedení na trh | Příklad: Přátelé / Friends (1994)
► Můžete vložit obrázky. Je možnost vložit jako přílohu a poté umístit do příspěvku (vyhnete se tím tomu, že bude smazán ze serveru který ho sdílí)
► Aspoň jeden odkaz na filmovou databázi, nejlépe na ČSFD do [CODE]
► Vložte stručný popis. Nemusíte o seriálu, ale hlavně o kvalitě. V případě dílu v kino/cam ripu přidejte | - CAM Rip
► Odkazy na stáhnutí musí být umístěny do [CODE]
► Přispívat bez čekání na schválení může pouze skupina File-share linker, kam můžete požádat o vstup nebo Vás tam sami na základě Vašich příspěvků zařadíme
watchdogs11
File-share linker
Příspěvky: 505
Registrován: 01 bře 2016 15:32

Penny Dreadful (2014)

Příspěvekod watchdogs11 » 18 čer 2016 09:33

Penny Dreadfu.jpg


Kód: Vybrat vše

http://www.csfd.cz/film/348622-penny-dreadful/prehled/


Výpravné seriálové zpracování původně hrůzostrašných povídek vydávaných v Londýně na začátku 19. století, jimž dal název fakt, že výtisk stál právě jednu penny. Týden co týden čekali dychtiví čtenáři převážně z řad chudiny na známé hororové postavy v podobě Frankensteina, Doriana Graye nebo hrdinů z románu Drákula. Všechny nestvůry jsou zasazeny do temného viktoriánského Londýna a kromě krásně strašidelného původního příběhu nabízí jejich seriálové zpracování i kvalitní dramatickou podívanou

Kód: Vybrat vše

Format: AVI
Format/Info: Audio Video Interleave
File size: 567 MiB
Duration: 55mn 34s
Overall bit rate: 1 427 Kbps

Video
ID: 0
Format: MPEG-4 Visual
Format profile: Advanced Simple@L5
Format settings, BVOP: Yes
Format settings, QPel: No
Format settings, GMC: No warppoints
Format settings, Matrix: Default (H.263)
Codec ID: XVID
Codec ID/Hint: XviD
Duration: 55mn 34s
Bit rate: 1 225 Kbps
Width: 700 pixels
Height: 394 pixels
Display aspect ratio: 16:9
Frame rate: 23.976 fps
Color space: YUV
Chroma subsampling: 4:2:0
Bit depth: 8 bits
Scan type: Progressive
Compression mode: Lossy
Bits/(Pixel*Frame): 0.185
Stream size: 487 MiB (86%)
Writing library: XviD 64

Audio
ID: 1
Format: AC-3
Format/Info: Audio Coding 3
Mode extension: CM (complete main)
Format settings, Endianness: Big
Codec ID: 2000
Duration: 55mn 34s
Source duration: 55mn 34s
Bit rate mode: Constant
Bit rate: 192 Kbps
Channel(s): 2 channels
Channel positions: Front: L R
Sampling rate: 48.0 KHz
Bit depth: 16 bits
Compression mode: Lossy
Stream size: 76.3 MiB (13%)
Alignment: Aligned on interleaves
Interleave, duration: 42 ms (1.00 video frame)


1.série

Kód: Vybrat vše

http://file-share.top/file/214487/penny-dreadful-s01e01-cz-dabing-avi
http://file-share.top/file/214488/penny-dreadful-s01e02-cz-dabing-avi
http://file-share.top/file/214489/penny-dreadful-s01e03-cz-dabing-avi
http://file-share.top/file/214490/penny-dreadful-s01e04-cz-dabing-avi
http://file-share.top/file/214491/penny-dreadful-s01e05-cz-dabing-avi
http://file-share.top/file/214492/penny-dreadful-s01e06-cz-dabing-avi
http://file-share.top/file/214493/penny-dreadful-s01e07-cz-dabing-avi
http://file-share.top/file/214494/penny-dreadful-s01e08-cz-dabing-avi
Naposledy upravil(a) watchdogs11 dne 19 čer 2016 09:16, celkem upraveno 1 x.

watchdogs11
File-share linker
Příspěvky: 505
Registrován: 01 bře 2016 15:32

Re: Penny Dreadful (2014)

Příspěvekod watchdogs11 » 19 čer 2016 09:15

2.série

Kód: Vybrat vše

http://file-share.top/file/215611/penny-dreadful-s02e01-cz-dabing-avi
http://file-share.top/file/215613/penny-dreadful-s02e02-cz-dabing-avi
http://file-share.top/file/215614/penny-dreadful-s02e03-cz-dabing-avi
http://file-share.top/file/215615/penny-dreadful-s02e04-cz-dabing-avi
http://file-share.top/file/215616/penny-dreadful-s02e05-cz-dabing-avi
http://file-share.top/file/215617/penny-dreadful-s02e06-cz-dabing-avi
http://file-share.top/file/215618/penny-dreadful-s02e07-cz-dabing-avi
http://file-share.top/file/215619/penny-dreadful-s02e08-cz-dabing-avi
http://file-share.top/file/215620/penny-dreadful-s02e09-cz-dabing-avi
http://file-share.top/file/215622/penny-dreadful-s02e10-cz-dabing-avi

watchdogs11
File-share linker
Příspěvky: 505
Registrován: 01 bře 2016 15:32

Re: Penny Dreadful (2014)

Příspěvekod watchdogs11 » 21 čer 2016 14:26

3.série

Kód: Vybrat vše

http://file-share.top/file/217524/penny-dreadful-s03e01-cz-dabing-avi
http://file-share.top/file/217525/penny-dreadful-s03e02-cz-dabing-avi
http://file-share.top/file/217526/penny-dreadful-s03e03-cz-dabing-avi
http://file-share.top/file/223903/penny-dreadful-s03e04-cz-dabing-avi
http://file-share.top/file/228465/penny-dreadful-s03e05-cz-dabing-avi
http://file-share.top/file/240390/penny-dreadful-s03e06-cz-dabing-avi
http://file-share.top/file/348872/penny-dreadful-s03e07-cz-dabing-avi
http://file-share.top/file/348874/penny-dreadful-s03e08-cz-dabing-avi
http://file-share.top/file/348882/penny-dreadful-s03e09-cz-dabing-avi

Naposledy upravil(a) watchdogs11 dne 13 srp 2016 11:39, celkem upraveno 3 x.

watchdogs11
File-share linker
Příspěvky: 505
Registrován: 01 bře 2016 15:32

Re: Penny Dreadful (2014)

Příspěvekod watchdogs11 » 27 čer 2016 21:19

Kód: Vybrat vše

http://file-share.top/file/223903/penny-dreadful-s03e04-cz-dabing-avi

watchdogs11
File-share linker
Příspěvky: 505
Registrován: 01 bře 2016 15:32

Re: Penny Dreadful (2014)

Příspěvekod watchdogs11 » 05 črc 2016 06:51

Kód: Vybrat vše

http://file-share.top/file/228465/penny-dreadful-s03e05-cz-dabing-avi

watchdogs11
File-share linker
Příspěvky: 505
Registrován: 01 bře 2016 15:32

Re: Penny Dreadful (2014)

Příspěvekod watchdogs11 » 17 črc 2016 15:58

Kód: Vybrat vše

http://file-share.top/file/240390/penny-dreadful-s03e06-cz-dabing-avi

watchdogs11
File-share linker
Příspěvky: 505
Registrován: 01 bře 2016 15:32

Re: Penny Dreadful (2014)

Příspěvekod watchdogs11 » 13 srp 2016 11:38

Kód: Vybrat vše

http://file-share.top/file/348872/penny-dreadful-s03e07-cz-dabing-avi
http://file-share.top/file/348874/penny-dreadful-s03e08-cz-dabing-avi
http://file-share.top/file/348882/penny-dreadful-s03e09-cz-dabing-avi


Zpět na “Seriály CZ/SK dubbing”

Kdo je online

Uživatelé prohlížející si toto fórum: Žádní registrovaní uživatelé a 1 host