Killjoys: Vesmírní lovci / Killjoys (2015)

Dabované seriály do češtiny a slovenštiny
Česká a slovenská tvorba
Pravidla fóra
► Zákaz vytváření duplicitních témat, používejte funkci HLEDAT
► Témata musí obsahovat český i anglický název a rok uvedení na trh | Příklad: Přátelé / Friends (1994)
► Můžete vložit obrázky. Je možnost vložit jako přílohu a poté umístit do příspěvku (vyhnete se tím tomu, že bude smazán ze serveru který ho sdílí)
► Aspoň jeden odkaz na filmovou databázi, nejlépe na ČSFD do [CODE]
► Vložte stručný popis. Nemusíte o seriálu, ale hlavně o kvalitě. V případě dílu v kino/cam ripu přidejte | - CAM Rip
► Odkazy na stáhnutí musí být umístěny do [CODE]
► Přispívat bez čekání na schválení může pouze skupina File-share linker, kam můžete požádat o vstup nebo Vás tam sami na základě Vašich příspěvků zařadíme
watchdogs11
File-share linker
Příspěvky: 505
Registrován: 01 bře 2016 15:32

Killjoys: Vesmírní lovci / Killjoys (2015)

Příspěvekod watchdogs11 » 21 čer 2016 23:42

killjoys.jpg


Kód: Vybrat vše

http://www.csfd.cz/film/50163-killjoys-vesmirni-lovci/prehled/


Příběh sleduje trojici vesmírných lovců odměn, kteří si přísahali zůstat nestranní i během plnění rozkazů v době krvavého multiplanetárního třídního boje.

Kód: Vybrat vše

Format                      : Matroska
Format version              : Version 2
File size                   : 314 MiB
Duration                    : 40mn 45s
Overall bit rate            : 1 078 Kbps
Encoded date                : UTC 2016-06-21 11:21:02
Writing application         : mkvmerge v4.4.0 ('Die Wiederkehr') built on Oct 31 2010 21:52:48
Writing library             : libebml v1.0.0 + libmatroska v1.0.0

Video
ID                          : 1
Format                      : AVC
Format/Info                 : Advanced Video Codec
Format profile              : High@L4.1
Format settings, CABAC      : Yes
Format settings, ReFrames   : 4 frames
Muxing mode                 : Header stripping
Codec ID                    : V_MPEG4/ISO/AVC
Duration                    : 40mn 45s
Bit rate                    : 929 Kbps
Nominal bit rate            : 1 900 Kbps
Width                       : 720 pixels
Height                      : 400 pixels
Display aspect ratio        : 16:9
Frame rate mode             : Constant
Frame rate                  : 25.000 fps
Original frame rate         : 50.000 fps
Color space                 : YUV
Chroma subsampling          : 4:2:0
Bit depth                   : 8 bits
Scan type                   : Progressive
Bits/(Pixel*Frame)          : 0.129
Stream size                 : 271 MiB (86%)
Writing library             : x264 core 146 r2538 121396c
Encoding settings           : cabac=1 / ref=2 / deblock=1:-1:-1 / analyse=0x3:0x113 / me=hex / subme=4 / psy=1 / psy_rd=1.00:0.15 / mixed_ref=0 / me_range=16 / chroma_me=1 / trellis=1 / 8x8dct=1 / cqm=0 / deadzone=21,11 / fast_pskip=1 / chroma_qp_offset=-1 / threads=12 / lookahead_threads=3 / sliced_threads=0 / nr=0 / decimate=1 / interlaced=0 / bluray_compat=0 / constrained_intra=0 / bframes=3 / b_pyramid=2 / b_adapt=1 / b_bias=0 / direct=1 / weightb=1 / open_gop=0 / weightp=1 / keyint=250 / keyint_min=25 / scenecut=40 / intra_refresh=0 / rc_lookahead=20 / rc=2pass / mbtree=1 / bitrate=1900 / ratetol=1.0 / qcomp=0.60 / qpmin=0 / qpmax=69 / qpstep=4 / cplxblur=20.0 / qblur=0.5 / ip_ratio=1.40 / aq=1:1.00
Default                     : Yes
Forced                      : No

Audio
ID                          : 2
Format                      : MPEG Audio
Format version              : Version 1
Format profile              : Layer 3
Mode                        : Joint stereo
Mode extension              : MS Stereo
Muxing mode                 : Header stripping
Codec ID                    : A_MPEG/L3
Codec ID/Hint               : MP3
Duration                    : 40mn 45s
Bit rate mode               : Constant
Bit rate                    : 128 Kbps
Channel(s)                  : 2 channels
Sampling rate               : 48.0 KHz
Compression mode            : Lossy
Delay relative to video     : -80ms
Stream size                 : 37.3 MiB (12%)
Writing library             : LAME3.90.3
Language                    : Czech
Default                     : Yes
Forced                      : No


1.série

Kód: Vybrat vše

http://file-share.top/file/217923/killjoys-vesmirni-lovci-killjoys-s01e01-cz-dabing-mkv
http://file-share.top/file/225780/killjoys-vesmirni-lovci-killjoys-s01e02-cz-dabing-mkv
http://file-share.top/file/229332/killjoys-vesmirni-lovci-killjoys-s01e03-cz-dabing-mkv
http://file-share.top/file/240373/killjoys-vesmirni-lovci-killjoys-s01e04-cz-dabing-mkv
http://file-share.top/file/348787/killjoys-vesmirni-lovci-killjoys-s01e05-mkv
http://file-share.top/file/348789/killjoys-vesmirni-lovci-killjoys-s01e06-jedna-krev-mkv
http://file-share.top/file/348791/killjoys-vesmirni-lovci-killjoys-s01e07-pusu-a-zbohem-mkv
http://file-share.top/file/348792/killjoys-vesmirni-lovci-killjoys-s01e08-prichazi-dest-mkv
http://file-share.top/file/360085/killjoys-vesmirni-lovci-killjoys-s01e09-nepritel-khlyen-mkv
http://file-share.top/file/400349/killjoys-vesmirni-lovci-killjoys-s01e10-unikova-rychlost-cztvrip-mkv
Naposledy upravil(a) watchdogs11 dne 12 zář 2016 20:39, celkem upraveno 3 x.

watchdogs11
File-share linker
Příspěvky: 505
Registrován: 01 bře 2016 15:32

Re: Killjoys: Vesmírní lovci / Killjoys (2015)

Příspěvekod watchdogs11 » 01 črc 2016 07:49

Kód: Vybrat vše

http://file-share.top/file/225780/killjoys-vesmirni-lovci-killjoys-s01e02-cz-dabing-mkv

watchdogs11
File-share linker
Příspěvky: 505
Registrován: 01 bře 2016 15:32

Re: Killjoys: Vesmírní lovci / Killjoys (2015)

Příspěvekod watchdogs11 » 06 črc 2016 06:51

Kód: Vybrat vše

http://file-share.top/file/229332/killjoys-vesmirni-lovci-killjoys-s01e03-cz-dabing-mkv

watchdogs11
File-share linker
Příspěvky: 505
Registrován: 01 bře 2016 15:32

Re: Killjoys: Vesmírní lovci / Killjoys (2015)

Příspěvekod watchdogs11 » 17 črc 2016 15:49

Kód: Vybrat vše

http://file-share.top/file/240373/killjoys-vesmirni-lovci-killjoys-s01e04-cz-dabing-mkv

watchdogs11
File-share linker
Příspěvky: 505
Registrován: 01 bře 2016 15:32

Re: Killjoys: Vesmírní lovci / Killjoys (2015)

Příspěvekod watchdogs11 » 13 srp 2016 09:04

Kód: Vybrat vše

http://file-share.top/file/348787/killjoys-vesmirni-lovci-killjoys-s01e05-mkv
http://file-share.top/file/348789/killjoys-vesmirni-lovci-killjoys-s01e06-jedna-krev-mkv
http://file-share.top/file/348791/killjoys-vesmirni-lovci-killjoys-s01e07-pusu-a-zbohem-mkv
http://file-share.top/file/348792/killjoys-vesmirni-lovci-killjoys-s01e08-prichazi-dest-mkv

watchdogs11
File-share linker
Příspěvky: 505
Registrován: 01 bře 2016 15:32

Re: Killjoys: Vesmírní lovci / Killjoys (2015)

Příspěvekod watchdogs11 » 17 srp 2016 23:56

Kód: Vybrat vše

http://file-share.top/file/360085/killjoys-vesmirni-lovci-killjoys-s01e09-nepritel-khlyen-mkv

watchdogs11
File-share linker
Příspěvky: 505
Registrován: 01 bře 2016 15:32

Re: Killjoys: Vesmírní lovci / Killjoys (2015)

Příspěvekod watchdogs11 » 12 zář 2016 20:39

Kód: Vybrat vše

http://file-share.top/file/400349/killjoys-vesmirni-lovci-killjoys-s01e10-unikova-rychlost-cztvrip-mkv


Zpět na “Seriály CZ/SK dubbing”

Kdo je online

Uživatelé prohlížející si toto fórum: Žádní registrovaní uživatelé a 1 host