Špióni od vedle / Keeping Up with the Joneses (2016)

Dabované filmy do češtiny a slovenštiny
Česká a slovenská tvorba
Pravidla fóra
► Zákaz vytváření duplicitních témat, používejte funkci HLEDAT
► Témata musí obsahovat český i anglický název a rok uvedení na trh | Příklad: Skála / The Rock (1996)
► První příspěvek MUSÍ obsahovat náhled (obrázek) obalu DVD nebo BR disku
► Témata musí obsahovat údaj o kino/cam ripu, jestli není v klasické kvalitě | Příklad: Skála / The Rock (1996) - CAM Rip
► Můžete vložit obrázky. Je možnost vložit jako přílohu a poté umístit do příspěvku (vyhnete se tím tomu, že bude smazán ze serveru který ho sdílí)
► Aspoň jeden odkaz na filmovou databázi, nejlépe na ČSFD do [CODE]
► Vložte stručný popis. Nemusíte o filmu, ale hlavně o kvalitě.
► Odkazy na stáhnutí musí být umístěny do [CODE]
► Přispívat bez čekání na schválení může pouze skupina File-share linker, kam můžete požádat o vstup nebo Vás tam sami na základě Vašich příspěvků zařadíme
snxx
File-share linker
Příspěvky: 146
Registrován: 11 zář 2016 16:56

Špióni od vedle / Keeping Up with the Joneses (2016)

Příspěvekod snxx » 08 led 2017 12:02

Špióni od vedle / Keeping Up with the Joneses (2016)

Obrázek

Kód: Vybrat vše

http://www.csfd.cz/film/415025-keeping-up-with-the-joneses/prehled/


AUDIO: CZ

Kód: Vybrat vše

Format            : AVI at 2 406 kb/s
Length            : 1,77 GiB for 1 h 45 min 20 sek. 356 ms

Video #0          : MPEG-4 Visual at 1 947 kb/s
Aspect            : 720 x 304 (2.368) at 23.976 fps

Audio #0          : AC-3 at 448 kb/s
Infos             : 6 kanálov, 48,0 kHz



Kód: Vybrat vše

http://file-share.top/file/518562/keupjo-avi


Forced Titulky

http://file-share.top/file/518563/keupjo-srt

cetrop
File-share linker
Příspěvky: 75
Registrován: 25 úno 2016 10:36

Re: Špióni od vedle / Keeping Up with the Joneses (2016)

Příspěvekod cetrop » 28 úno 2017 08:35

JAZYK CZ


Obrázek

SCREEN

Obrázek

CSFD : http://www.csfd.cz/film/415025-spioni-odvedle/prehled/


INFO

Format : AVI
Format/Info : Audio Video Interleave
File size : 1.43 GiB
Duration : 1h 45mn
Overall bit rate : 1 950 Kbps
Writing application : VirtualDubMod 1.5.10.2 (build 2540/release)
Writing library : VirtualDubMod build 2540/release

Video
ID : 0
Format : MPEG-4 Visual
Format profile : Advanced Simple@L5
Format settings, BVOP : 2
Format settings, QPel : No
Format settings, GMC : No warppoints
Format settings, Matrix : Default (H.263)
Muxing mode : Packed bitstream
Codec ID : XVID
Codec ID/Hint : XviD
Duration : 1h 45mn
Bit rate : 1 492 Kbps
Width : 720 pixels
Height : 304 pixels
Display aspect ratio : 2.35:1
Frame rate : 23.976 (23976/1000) fps
Color space : YUV
Chroma subsampling : 4:2:0
Bit depth : 8 bits
Scan type : Progressive
Compression mode : Lossy
Bits/(Pixel*Frame) : 0.284
Stream size : 1.10 GiB (77%)
Writing library : XviD 66

Audio
ID : 1
Format : AC-3
Format/Info : Audio Coding 3
Mode extension : CM (complete main)
Format settings, Endianness : Big
Codec ID : 2000
Duration : 1h 45mn
Bit rate mode : Constant
Bit rate : 448 Kbps
Channel(s) : 6 channels
Channel positions : Front: L C R, Side: L R, LFE
Sampling rate : 48.0 KHz
Frame rate : 31.250 fps (1536 spf)
Compression mode : Lossy
Stream size : 338 MiB (23%)
Alignment : Split accross interleaves
Interleave, duration : 42 ms (1.00 video frame)
Interleave, preload duratio : 500 ms




Kód: Vybrat vše

http://file-share.top/file/554699/sinvdl-part1-rar
http://file-share.top/file/554696/sinvdl-part2-rar


Zpět na “Filmy CZ/SK dubbing”

Kdo je online

Uživatelé prohlížející si toto fórum: Google [Bot] a 3 hosti