Mune - Strážce měsíce / Mune, le gardien de la lune (2015)

Animované filmy, pohádky apod.
Pravidla fóra
► Zákaz vytváření duplicitních témat, používejte funkci HLEDAT
► Témata musí obsahovat český i anglický název a rok uvedení na trh | Příklad: Sedmero krkavců / The Seven Ravens (2015)
► Můžete vložit obrázky. Je možnost vložit jako přílohu a poté umístit do příspěvku (vyhnete se tím tomu, že bude smazán ze serveru který ho sdílí)
► Aspoň jeden odkaz na filmovou databázi, nejlépe na ČSFD do [CODE]
► Vložte stručný popis. Nemusíte o filmu, ale hlavně o kvalitě.
► Odkazy na stáhnutí musí být umístěny do [CODE]
► Přispívat bez čekání na schválení může pouze skupina File-share linker, kam můžete požádat o vstup nebo Vás tam sami na základě Vašich příspěvků zařadíme
watchdogs11
File-share linker
Příspěvky: 505
Registrován: 01 bře 2016 15:32

Mune - Strážce měsíce / Mune, le gardien de la lune (2015)

Příspěvekod watchdogs11 » 10 bře 2016 10:49

mune.jpg
mune.jpg (48.17 KiB) Zobrazeno 636 x


Mune - Strážce měsíce CZ/SK 1080p

Kód: Vybrat vše

http://www.csfd.cz/film/407369-mune-strazce-mesice/prehled/


Kód: Vybrat vše

Format                                   : Matroska
Format version                           : Version 2
File size                                : 9.97 GiB
Duration                                 : 1h 24mn
Overall bit rate                         : 16.8 Mbps

Video
ID                                       : 1
Format                                   : AVC
Format/Info                              : Advanced Video Codec
Format profile                           : High@L4.1
Format settings, CABAC                   : Yes
Format settings, ReFrames                : 5 frames
Codec ID                                 : V_MPEG4/ISO/AVC
Duration                                 : 1h 24mn
Bit rate                                 : 11.0 Mbps
Width                                    : 1 920 pixels
Height                                   : 800 pixels
Display aspect ratio                     : 2.40:1
Frame rate mode                          : Constant
Frame rate                               : 23.976 fps

Audio #1
ID                                       : 2
Format                                   : AC-3
Format/Info                              : Audio Coding 3
Mode extension                           : CM (complete main)
Format settings, Endianness              : Big
Codec ID                                 : A_AC3
Duration                                 : 1h 24mn
Bit rate mode                            : Constant
Bit rate                                 : 640 Kbps
Channel count                            : 6 channels
Channel positions                        : Front: L C R, Side: L R, LFE
Sampling rate                            : 48.0 KHz
Bit depth                                : 16 bits
Compression mode                         : Lossy
Stream size                              : 389 MiB (4%)
Language                                 : Czech
Default                                  : Yes
Forced                                   : No

Audio #2
ID                                       : 3
Format                                   : DTS
Format/Info                              : Digital Theater Systems
Mode                                     : 16
Format settings, Endianness              : Big
Codec ID                                 : A_DTS
Duration                                 : 1h 24mn
Bit rate mode                            : Constant
Bit rate                                 : 1 509 Kbps
Channel count                            : 6 channels
Channel positions                        : Front: L C R, Side: L R, LFE
Sampling rate                            : 48.0 KHz
Bit depth                                : 16 bits
Compression mode                         : Lossy
Stream size                              : 917 MiB (9%)
Language                                 : Czech
Default                                  : No
Forced                                   : No

Audio #3
ID                                       : 4
Format                                   : AC-3
Format/Info                              : Audio Coding 3
Mode extension                           : CM (complete main)
Format settings, Endianness              : Big
Codec ID                                 : A_AC3
Duration                                 : 1h 24mn
Bit rate mode                            : Constant
Bit rate                                 : 640 Kbps
Channel count                            : 6 channels
Channel positions                        : Front: L C R, Side: L R, LFE
Sampling rate                            : 48.0 KHz
Bit depth                                : 16 bits
Compression mode                         : Lossy
Stream size                              : 389 MiB (4%)
Language                                 : Slovak
Default                                  : No
Forced                                   : No

Audio #4
ID                                       : 5
Format                                   : DTS
Format/Info                              : Digital Theater Systems
Mode                                     : 16
Format settings, Endianness              : Big
Codec ID                                 : A_DTS
Duration                                 : 1h 24mn
Bit rate mode                            : Constant
Bit rate                                 : 1 509 Kbps
Channel count                            : 6 channels
Channel positions                        : Front: L C R, Side: L R, LFE
Sampling rate                            : 48.0 KHz
Bit depth                                : 16 bits
Compression mode                         : Lossy
Stream size                              : 917 MiB (9%)
Language                                 : Slovak
Default                                  : No
Forced                                   : No

Audio #5
ID                                       : 6
Format                                   : DTS
Format/Info                              : Digital Theater Systems
Mode                                     : 16
Format settings, Endianness              : Big
Codec ID                                 : A_DTS
Duration                                 : 1h 24mn
Bit rate mode                            : Constant
Bit rate                                 : 1 509 Kbps
Channel count                            : 6 channels
Channel positions                        : Front: L C R, Side: L R, LFE
Sampling rate                            : 48.0 KHz
Bit depth                                : 16 bits
Compression mode                         : Lossy
Stream size                              : 917 MiB (9%)
Language                                 : English
Default                                  : No
Forced                                   : No


Kód: Vybrat vše

http://file-share.top/file/149012/mune-strazce-mesice-mune-le-gardien-de-la-lune-2014-1080p-bluray-dts-x264-cz-sk-dab-part1-rar
http://file-share.top/file/149013/mune-strazce-mesice-mune-le-gardien-de-la-lune-2014-1080p-bluray-dts-x264-cz-sk-dab-part2-rar
http://file-share.top/file/149014/mune-strazce-mesice-mune-le-gardien-de-la-lune-2014-1080p-bluray-dts-x264-cz-sk-dab-part3-rar
http://file-share.top/file/149015/mune-strazce-mesice-mune-le-gardien-de-la-lune-2014-1080p-bluray-dts-x264-cz-sk-dab-part4-rar
http://file-share.top/file/149016/mune-strazce-mesice-mune-le-gardien-de-la-lune-2014-1080p-bluray-dts-x264-cz-sk-dab-part5-rar
http://file-share.top/file/149017/mune-strazce-mesice-mune-le-gardien-de-la-lune-2014-1080p-bluray-dts-x264-cz-sk-dab-part6-rar

Zpět na “HD Animované a Pohádky”

Kdo je online

Uživatelé prohlížející si toto fórum: Žádní registrovaní uživatelé a 2 hosti