Království lesních strážců / Epic (2013)

Animované filmy, pohádky apod.
Pravidla fóra
► Zákaz vytváření duplicitních témat, používejte funkci HLEDAT
► Témata musí obsahovat český i anglický název a rok uvedení na trh | Příklad: Sedmero krkavců / The Seven Ravens (2015)
► Můžete vložit obrázky. Je možnost vložit jako přílohu a poté umístit do příspěvku (vyhnete se tím tomu, že bude smazán ze serveru který ho sdílí)
► Aspoň jeden odkaz na filmovou databázi, nejlépe na ČSFD do [CODE]
► Vložte stručný popis. Nemusíte o filmu, ale hlavně o kvalitě.
► Odkazy na stáhnutí musí být umístěny do [CODE]
► Přispívat bez čekání na schválení může pouze skupina File-share linker, kam můžete požádat o vstup nebo Vás tam sami na základě Vašich příspěvků zařadíme
jack86
File-share linker
Příspěvky: 76
Registrován: 09 úno 2016 05:47

Království lesních strážců / Epic (2013)

Příspěvekod jack86 » 11 dub 2016 21:04

Obrázek


Kód: Vybrat vše

http://www.csfd.cz/film/300894-kralovstvi-lesnich-strazcu/prehled/
http://www.imdb.com/title/tt0848537/combined



Epic.2013.Repack.BluRay.1080p.DTS.x264-HDWinG

Kód: Vybrat vše

Epic.2013.Repack.BluRay.1080p.DTS.x264-HDWinG
Format                      : Matroska
Format version              : Version 2
File size                   : 6.96 GiB
Duration                    : 1h 42mn
Overall bit rate            : 9 722 Kbps
Encoded date                : UTC 2013-08-10 09:53:45
Writing application         : mkvmerge v5.8.0 ('No Sleep / Pillow') built on Sep  2 2012 15:37:04
Writing library             : libebml v1.2.3 + libmatroska v1.3.0

Video
ID                          : 1
Format                      : AVC
Format/Info                 : Advanced Video Codec
Format profile              : High@L4.1
Format settings, CABAC      : Yes
Format settings, ReFrames   : 5 frames
Muxing mode                 : Header stripping
Codec ID                    : V_MPEG4/ISO/AVC
Duration                    : 1h 42mn
Bit rate                    : 7 124 Kbps
Width                       : 1 920 pixels
Height                      : 800 pixels
Display aspect ratio        : 2.40:1
Frame rate mode             : Constant
Frame rate                  : 23.976 (24000/1001) fps
Color space                 : YUV
Chroma subsampling          : 4:2:0
Bit depth                   : 8 bits
Scan type                   : Progressive
Bits/(Pixel*Frame)          : 0.193
Stream size                 : 5.10 GiB (73%)
Writing library             : x264 core 132 r2323+704+51 d571b1c tMod [8-bit@4:2:0 X86_64]
Encoding settings           : cabac=1 / ref=5 / deblock=1:-3:-3 / analyse=0x3:0x133 / me=umh / subme=11 / psy=1 / fade_compensate=0.00 / psy_rd=1.01:0.00 / mixed_ref=1 / me_range=32 / chroma_me=1 / trellis=2 / 8x8dct=1 / cqm=0 / deadzone=21,11 / fast_pskip=0 / chroma_qp_offset=-2 / threads=36 / lookahead_threads=6 / sliced_threads=0 / nr=0 / decimate=0 / interlaced=0 / bluray_compat=0 / constrained_intra=0 / fgo=0 / bframes=8 / b_pyramid=2 / b_adapt=2 / b_bias=0 / direct=3 / weightb=1 / open_gop=0 / weightp=2 / keyint=240 / keyint_min=24 / scenecut=40 / intra_refresh=0 / rc_lookahead=240 / rc=crf / mbtree=1 / crf=17.5000 / qcomp=0.70 / qpmin=0 / qpmax=69 / qpstep=4 / ip_ratio=1.20 / aq=4:0.95 / aq-sensitivity=10.00 / aq-factor=1.00:1.00:1.00 / aq2=0 / aq3=0
Language                    : English
Default                     : Yes
Forced                      : No

Audio #1
ID                          : 2
Format                      : AC-3
Format/Info                 : Audio Coding 3
Mode extension              : CM (complete main)
Format settings, Endianness : Big
Muxing mode                 : Header stripping
Codec ID                    : A_AC3
Duration                    : 1h 42mn
Bit rate mode               : Constant
Bit rate                    : 448 Kbps
Channel(s)                  : 6 channels
Channel positions           : Front: L C R, Side: L R, LFE
Sampling rate               : 48.0 KHz
Frame rate                  : 31.250 fps (1536 spf)
Compression mode            : Lossy
Stream size                 : 328 MiB (5%)
Language                    : Slovak
Default                     : Yes
Forced                      : No

Audio #2
ID                          : 3
Format                      : AC-3
Format/Info                 : Audio Coding 3
Mode extension              : CM (complete main)
Format settings, Endianness : Big
Muxing mode                 : Header stripping
Codec ID                    : A_AC3
Duration                    : 1h 42mn
Bit rate mode               : Constant
Bit rate                    : 448 Kbps
Channel(s)                  : 6 channels
Channel positions           : Front: L C R, Side: L R, LFE
Sampling rate               : 48.0 KHz
Frame rate                  : 31.250 fps (1536 spf)
Compression mode            : Lossy
Stream size                 : 328 MiB (5%)
Language                    : Czech
Default                     : No
Forced                      : No

Audio #3
ID                          : 4
Format                      : DTS
Format/Info                 : Digital Theater Systems
Format profile              : ES Matrix / Core
Mode                        : 16
Format settings, Endianness : Big
Muxing mode                 : Header stripping
Codec ID                    : A_DTS
Duration                    : 1h 42mn
Bit rate mode               : Constant
Bit rate                    : 1 509 Kbps
Channel(s)                  : 7 channels / 6 channels
Channel positions           : Front: L C R, Side: L R, Back: C, LFE / Front: L C R, Side: L R, LFE
Sampling rate               : 48.0 KHz
Frame rate                  : 93.750 fps (512 spf)
Bit depth                   : 24 bits
Compression mode            : Lossy
Stream size                 : 1.08 GiB (16%)
Default                     : No
Forced                      : No

Text #1
ID                          : 5
Format                      : PGS
Muxing mode                 : zlib
Codec ID                    : S_HDMV/PGS
Codec ID/Info               : Picture based subtitle format used on BDs/HD-DVDs
Language                    : Czech
Default                     : No
Forced                      : No

Text #2
ID                          : 6
Format                      : PGS
Muxing mode                 : zlib
Codec ID                    : S_HDMV/PGS
Codec ID/Info               : Picture based subtitle format used on BDs/HD-DVDs
Language                    : Slovak
Default                     : No
Forced                      : No

Text #3
ID                          : 7
Format                      : PGS
Muxing mode                 : zlib
Codec ID                    : S_HDMV/PGS
Codec ID/Info               : Picture based subtitle format used on BDs/HD-DVDs
Language                    : English
Default                     : Yes
Forced                      : No



Sample

Kód: Vybrat vše

http://file-share.top/file/174253/08013102e-mkv



Kód: Vybrat vše

http://file-share.top/file/173762/08013102e-part1-rar
http://file-share.top/file/173771/08013102e-part2-rar
http://file-share.top/file/173775/08013102e-part3-rar
http://file-share.top/file/173781/08013102e-part4-rar




Upload 3% na opravu dat

no pass
social-bux.com/?ref=29
IMACRO PRO SOCIAL-BUX

Zpět na “HD Animované a Pohádky”

Kdo je online

Uživatelé prohlížející si toto fórum: Žádní registrovaní uživatelé a 1 host