Konečně doma / Home (2015)

Animované filmy, pohádky apod.
Pravidla fóra
► Zákaz vytváření duplicitních témat, používejte funkci HLEDAT
► Témata musí obsahovat český i anglický název a rok uvedení na trh | Příklad: Sedmero krkavců / The Seven Ravens (2015)
► Můžete vložit obrázky. Je možnost vložit jako přílohu a poté umístit do příspěvku (vyhnete se tím tomu, že bude smazán ze serveru který ho sdílí)
► Aspoň jeden odkaz na filmovou databázi, nejlépe na ČSFD do [CODE]
► Vložte stručný popis. Nemusíte o filmu, ale hlavně o kvalitě.
► Odkazy na stáhnutí musí být umístěny do [CODE]
► Přispívat bez čekání na schválení může pouze skupina File-share linker, kam můžete požádat o vstup nebo Vás tam sami na základě Vašich příspěvků zařadíme
lepin

Konečně doma / Home (2015)

Příspěvekod lepin » 14 kvě 2016 06:50

Konečně doma / Home (2015)
Happy Smekday!

Obrázek
Animovaný / Dobrodružný / Komedie / Rodinný / Fantasy / Sci-Fi
USA, 2015, 92 min

Kód: Vybrat vše

http://www.csfd.cz/film/319987-konecne-doma/

Režie: Tim Johnson
Předloha: Adam Rex (kniha)
Scénář: Tom J. Astle, Matt Ember
Hudba: Lorne Balfe
Hrají: Jim Parsons, Rihanna, Jennifer Lopez, Steve Martin, Matt Jones,
Nigel W. Tierney

Obsah:

Na naši krásnou modrou planetu dorazili Buvové, což jsou mimozemští vetřelci s
mnoha chapadýlky místo nožiček, kteří dosud putovali mezigalaktickým prostorem
a hledali pro sebe novou planetu, na které by mohli v klidu a snad i míru žít.
Tu jejich původní zničili nepřátelští Gorgové, kteří se na ně z nějakého důvodu
naštvali a pronásledují je napříč celým vesmírem. Takto ale nezačíná film o
válce světů, ale kouzelná a vtipná animovaná komedie Konečně doma. Mimozemská
invaze Buvů na Zemi je celkem vlídná a laskavá – Buvové svůj nový domov začnou
předělávat k obrazu svému a začnou tím, že lidi prostě přestěhují do Austrálie,
kde jim dopřávají díky své vyspělé buvanské technice velice pohodlný život. Při
tomto stěhování jim ale proklouzne mezi prsty holka jménem Tipy, která od té
chvíle hledá svou mámu. Tipy má hodně dobrodružnou povahu a kočku, která se
jmenuje Čuník. Proč ne, že?
Svůj malý domov na Zemi našel i Buvan jménem O, který je tak trochu fialový,
strašně upovídaný především hodně přátelský. A proto hned začne připravovat
večírek, na který pozve všechny a omylem pošle intergalaktickou pozvánku i
Gorgům. Což je opravdu velký průšvih, díky němuž jsou na něj ostatní Buvové
hodně naštvaní a někteří by mu chtěli říct i pár slov pěkně od plic. O bere
všechna svá chapadýlka na ramena a potřebuje se někam na chvíli schovat, než
jejich hlavy trochu vychladnou. Na útěku O narazí na ztracenou Tipy a postupně
mezi nimi vzniká intergalaktické přátelství. O se snaží svým roztomilým
způsobem napravit vše, co Buvané svým příchodem na Zemi způsobili, díky čemuž
zmatek narůstá rychlostí světla. Tipy na oplátku seznámí Oa s humorem, uměním,
hudbou a tancem, rodinou i přátelstvím. Ale především se Oh a Tipy snaží
porozumět jeden druhému a najít Tipyninu mámu.

Jazyk: český, anglický
Titulky: české, anglické


Kód: Vybrat vše

Hlavní
Celý název a cesta : G:\Konečně doma_Home (2015)(CZ,EN)[1080pHD].mkv
Format: Matroska
Format version: Version 4 / Version 2
File size: 19.0 GiB
Duration: 1h 33mn
Overall bit rate mode: Variable
Overall bit rate: 29.0 Mbps
Movie name: Konečně doma - HD 1080p - CZ+ENG
Encoded date: UTC 2016-03-04 18:13:45
Writing application: mkvmerge v8.5.2 ('Crosses';) 64bit
Writing library: libebml v1.3.3 + libmatroska v1.4.4

Video
ID: 1
Format: AVC
Format/Info: Advanced Video Codec
Format profile: Main@L4.1
Format settings, CABAC: Yes
Format settings, ReFrames: 1 frame
Format settings, GOP: M=1, N=15
Codec ID: V_MPEG4/ISO/AVC
Duration: 1h 33mn
Bit rate mode: Variable
Bit rate: 23.0 Mbps
Maximum bit rate: 40.0 Mbps
Width: 1 920 pixels
Height: 1 080 pixels
Display aspect ratio: 16:9
Frame rate mode: Constant
Frame rate: 23.976 (24000/1001) fps
Color space: YUV
Chroma subsampling: 4:2:0
Bit depth: 8 bits
Scan type: Progressive
Bits/(Pixel*Frame): 0.463
Stream size: 15.1 GiB (79%)
Title: Konečně doma - HD 1080p - CZ+ENG, by Mattysko
Language: English
Default: Yes
Forced: Yes

Audio #1
ID: 2
Format: DTS
Format/Info: Digital Theater Systems
Mode: 16
Format settings, Endianness: Big
Codec ID: A_DTS
Duration: 1h 33mn
Bit rate mode: Constant
Bit rate: 1 509 Kbps
Channel(s): 6 channels
Channel positions: Front: L C R, Side: L R, LFE
Sampling rate: 48.0 KHz
Frame rate: 93.750 fps (512 spf)
Bit depth: 16 bits
Compression mode: Lossy
Delay relative to video: 750ms
Stream size: 1 012 MiB (5%)
Title: DTS - 5.1 CZ
Language: Czech
Default: Yes
Forced: No

Audio #2
ID: 3
Format: DTS
Format/Info: Digital Theater Systems
Format profile: MA / ES Matrix / Core
Mode: 16
Format settings, Endianness: Big
Codec ID: A_DTS
Duration: 1h 33mn
Bit rate mode: Variable / Constant / Constant
Bit rate: 4 452 Kbps / 1 509 Kbps / 1 509 Kbps
Channel(s): 8 channels / 7 channels / 6 channels
Channel positions: Front: L C R, Side: L R, Back: L R, LFE / Front: L C R, Side: L R, Back: C, LFE / Front: L C R, Side: L R, LFE
Sampling rate: 48.0 KHz
Frame rate: 93.750 fps (512 spf)
Bit depth: 24 bits
Compression mode: Lossless / Lossy / Lossy
Stream size: 2.92 GiB (15%)
Title: DTS - 5.1 ENG
Language: English
Default: No
Forced: No

Text #1
ID: 4
Format: UTF-8
Codec ID: S_TEXT/UTF8
Codec ID/Info: UTF-8 Plain Text
Duration: 1h 23mn
Bit rate: 52 bps
Count of elements: 1169
Stream size: 31.7 KiB (0%)
Title: Czech
Language: Czech
Default: No
Forced: No

Text #2
ID: 5
Format: UTF-8
Codec ID: S_TEXT/UTF8
Codec ID/Info: UTF-8 Plain Text
Duration: 1h 23mn
Bit rate: 49 bps
Count of elements: 1139
Stream size: 30.4 KiB (0%)
Title: English
Language: English
Default: No
Forced: No

Menu


Bez HESLA
PŘED STAHOVÁNÍM JE TŘEBA ZKONTROLOVAT FUNKČNOST LINKŮ !!!

PŘIDÁN ZÁZNAM NA OPRAVU DAT 5% .POKUD ARCHÍV NEJDE ROZBALIT A HLASÍ CHYBU CRC,
JE POTŘEBA OPRAVA VE WINRARU.

Rary nezálohuju!!! Po nabonzování novej up
ObrázekObrázek

file-share.top

Kód: Vybrat vše

http://file-share.top/file/195565/home-2015-cz-1080p-part01-rar
http://file-share.top/file/195568/home-2015-cz-1080p-part02-rar
http://file-share.top/file/195570/home-2015-cz-1080p-part03-rar
http://file-share.top/file/195572/home-2015-cz-1080p-part04-rar
http://file-share.top/file/195573/home-2015-cz-1080p-part05-rar
http://file-share.top/file/195574/home-2015-cz-1080p-part06-rar
http://file-share.top/file/195575/home-2015-cz-1080p-part07-rar
http://file-share.top/file/195576/home-2015-cz-1080p-part08-rar
http://file-share.top/file/195577/home-2015-cz-1080p-part09-rar
http://file-share.top/file/195580/home-2015-cz-1080p-part10-rar
http://file-share.top/file/195581/home-2015-cz-1080p-part11-rar


Linky jsou kombinovatelné
STÁHNOUT,VYZKOUŠET A POSOUDIT,ZDA KOUPIT,NEBO NEKOUPIT,,,
Koupí pirátských filmů podporujete zloděje
Pokud jsi můj upload stáhl a líbil se Ti,kup si ho,dokud je ještě k mání.
PODĚKOVÁNÍ VÁM NEUBLÍŽÍ A MĚ MOTIVUJE
Jak předejít infarktu?Poslat do řiti každého dřív,než Tě nasere,,,
enjoy_by_lepin
Obrázek
Obrázek

Zpět na “HD Animované a Pohádky”

Kdo je online

Uživatelé prohlížející si toto fórum: Žádní registrovaní uživatelé a 1 host