Cesta na měsíc / Capture the Flag (2016)

Animované filmy, pohádky apod.
Pravidla fóra
► Zákaz vytváření duplicitních témat, používejte funkci HLEDAT
► Témata musí obsahovat český i anglický název a rok uvedení na trh | Příklad: Sedmero krkavců / The Seven Ravens (2015)
► Můžete vložit obrázky. Je možnost vložit jako přílohu a poté umístit do příspěvku (vyhnete se tím tomu, že bude smazán ze serveru který ho sdílí)
► Aspoň jeden odkaz na filmovou databázi, nejlépe na ČSFD do [CODE]
► Vložte stručný popis. Nemusíte o filmu, ale hlavně o kvalitě.
► Odkazy na stáhnutí musí být umístěny do [CODE]
► Přispívat bez čekání na schválení může pouze skupina File-share linker, kam můžete požádat o vstup nebo Vás tam sami na základě Vašich příspěvků zařadíme
watchdogs11
File-share linker
Příspěvky: 505
Registrován: 01 bře 2016 15:32

Cesta na měsíc / Capture the Flag (2016)

Příspěvekod watchdogs11 » 18 kvě 2016 22:59

cesta.jpg


Kód: Vybrat vše

http://www.csfd.cz/film/54847-cesta-na-mesic/prehled/


Cesta na měsíc 1080p
Jazyk: 5.1 CZ, ENG

Kód: Vybrat vše

Format                                   : Matroska
Format version                           : Version 2
File size                                : 9.44 GiB
Duration                                 : 1h 34mn
Overall bit rate                         : 14.3 Mbps
Encoded date                             : UTC 2016-05-18 10:54:06
Writing application                      : mkvmerge v9.1.0 ('Little Earthquakes') 32bit
Writing library                          : libebml v1.3.3 + libmatroska v1.4.4
DURATION                                 : 01:33:52.681000000
NUMBER_OF_FRAMES                         : 1202
NUMBER_OF_BYTES                          : 35761
_STATISTICS_WRITING_APP                  : mkvmerge v9.1.0 ('Little Earthquakes') 32bit
_STATISTICS_WRITING_DATE_UTC             : 2016-05-18 10:54:06
_STATISTICS_TAGS                         : BPS DURATION NUMBER_OF_FRAMES NUMBER_OF_BYTES

Video
ID                                       : 1
Format                                   : AVC
Format/Info                              : Advanced Video Codec
Format profile                           : High@L4.1
Format settings, CABAC                   : Yes
Format settings, ReFrames                : 5 frames
Codec ID                                 : V_MPEG4/ISO/AVC
Duration                                 : 1h 34mn
Bit rate                                 : 12.3 Mbps
Width                                    : 1 920 pixels
Height                                   : 804 pixels
Display aspect ratio                     : 2.40:1
Frame rate mode                          : Constant
Frame rate                               : 23.976 fps
Color space                              : YUV
Chroma subsampling                       : 4:2:0
Bit depth                                : 8 bits
Scan type                                : Progressive
Bits/(Pixel*Frame)                       : 0.331
Stream size                              : 8.11 GiB (86%)
Title                                    : Capture.the.Flag.2015.1080p.BluRay.DD5.1.x264.CZ-TreZzoR
Writing library                          : x264 core 148 r2665kMod a01e339
Encoding settings                        : cabac=1 / ref=5 / deblock=1:-3:-3 / analyse=0x3:0x133 / me=umh / subme=10 / psy=1 / fade_compensate=0.00 / psy_rd=0.75:0.00 / mixed_ref=1 / me_range=48 / chroma_me=1 / trellis=2 / 8x8dct=1 / cqm=0 / deadzone=21,11 / fast_pskip=0 / chroma_qp_offset=-2 / threads=18 / lookahead_threads=3 / sliced_threads=0 / nr=0 / decimate=0 / interlaced=0 / bluray_compat=0 / constrained_intra=0 / fgo=0 / bframes=8 / b_pyramid=2 / b_adapt=2 / b_bias=0 / direct=3 / weightb=1 / open_gop=0 / weightp=2 / keyint=250 / keyint_min=23 / scenecut=40 / intra_refresh=0 / rc_lookahead=60 / rc=crf / mbtree=0 / crf=16.3000 / qcomp=0.65 / qpmin=0 / qpmax=69 / qpstep=4 / vbv_maxrate=50000 / vbv_bufsize=62500 / crf_max=0.0 / nal_hrd=none / filler=0 / ip_ratio=1.23 / pb_ratio=1.12 / aq=1:0.90
Language                                 : English
Default                                  : Yes
Forced                                   : No
DURATION                                 : 01:34:38.965000000
NUMBER_OF_FRAMES                         : 136159
NUMBER_OF_BYTES                          : 8907720098
_STATISTICS_WRITING_APP                  : mkvmerge v9.1.0 ('Little Earthquakes') 32bit
_STATISTICS_WRITING_DATE_UTC             : 2016-05-18 10:54:06
_STATISTICS_TAGS                         : BPS DURATION NUMBER_OF_FRAMES NUMBER_OF_BYTES

Audio #1
ID                                       : 2
Format                                   : AC-3
Format/Info                              : Audio Coding 3
Mode extension                           : CM (complete main)
Format settings, Endianness              : Big
Codec ID                                 : A_AC3
Duration                                 : 1h 34mn
Bit rate mode                            : Constant
Bit rate                                 : 448 Kbps
Channel count                            : 6 channels
Channel positions                        : Front: L C R, Side: L R, LFE
Sampling rate                            : 48.0 KHz
Bit depth                                : 16 bits
Compression mode                         : Lossy
Stream size                              : 303 MiB (3%)
Language                                 : Czech
Default                                  : Yes
Forced                                   : No

Audio #2
ID                                       : 3
Format                                   : AC-3
Format/Info                              : Audio Coding 3
Mode extension                           : CM (complete main)
Format settings, Endianness              : Big
Codec ID                                 : A_AC3
Duration                                 : 1h 34mn
Bit rate mode                            : Constant
Bit rate                                 : 640 Kbps
Channel count                            : 6 channels
Channel positions                        : Front: L C R, Side: L R, LFE
Sampling rate                            : 48.0 KHz
Bit depth                                : 16 bits
Compression mode                         : Lossy
Stream size                              : 433 MiB (4%)
Language                                 : English
Default                                  : No
Forced                                   : No

Audio #3
ID                                       : 4
Format                                   : AC-3
Format/Info                              : Audio Coding 3
Mode extension                           : CM (complete main)
Format settings, Endianness              : Big
Codec ID                                 : A_AC3
Duration                                 : 1h 34mn
Bit rate mode                            : Constant
Bit rate                                 : 640 Kbps
Channel count                            : 6 channels
Channel positions                        : Front: L C R, Side: L R, LFE
Sampling rate                            : 48.0 KHz
Bit depth                                : 16 bits
Compression mode                         : Lossy
Stream size                              : 433 MiB (4%)
Language                                 : Spanish
Default                                  : No
Forced                                   : No

Text #1
ID                                       : 5
Format                                   : UTF-8
Codec ID                                 : S_TEXT/UTF8
Codec ID/Info                            : UTF-8 Plain Text
Title                                    : forced
Default                                  : Yes
Forced                                   : Yes

Text #2
ID                                       : 6
Format                                   : UTF-8
Codec ID                                 : S_TEXT/UTF8
Codec ID/Info                            : UTF-8 Plain Text
Language                                 : Czech
Default                                  : No
Forced                                   : No


Kód: Vybrat vše

http://file-share.top/file/198826/cesta-na-mesic-capture-the-flag-2015-1080p-cz-dabing-part1-rar
http://file-share.top/file/198827/cesta-na-mesic-capture-the-flag-2015-1080p-cz-dabing-part2-rar
http://file-share.top/file/198828/cesta-na-mesic-capture-the-flag-2015-1080p-cz-dabing-part3-rar
http://file-share.top/file/198830/cesta-na-mesic-capture-the-flag-2015-1080p-cz-dabing-part4-rar
http://file-share.top/file/198831/cesta-na-mesic-capture-the-flag-2015-1080p-cz-dabing-part5-rar

Zpět na “HD Animované a Pohádky”

Kdo je online

Uživatelé prohlížející si toto fórum: Žádní registrovaní uživatelé a 1 host