Americký sniper / American Sniper (2014)

Plnohodnotné Blu-ray kopie originalu
Netříděná sekce. Filmy s dabingem i bez a ostatní
Pravidla fóra
► Zákaz vytváření duplicitních témat, používejte funkci HLEDAT
► Témata musí obsahovat český i anglický název a rok uvedení na trh | Příklad: Skála / The Rock (1996)
► Můžete vložit obrázky. Je možnost vložit jako přílohu a poté umístit do příspěvku (vyhnete se tím tomu, že bude smazán ze serveru který ho sdílí)
► Aspoň jeden odkaz na filmovou databázi, nejlépe na ČSFD do [CODE]
► Vložte stručný popis. Nemusíte o filmu, ale hlavně o kvalitě.
► Odkazy na stáhnutí musí být umístěny do [CODE]
► Přispívat bez čekání na schválení může pouze skupina File-share linker, kam můžete požádat o vstup nebo Vás tam sami na základě Vašich příspěvků zařadíme
jack86
File-share linker
Příspěvky: 76
Registrován: 09 úno 2016 05:47

Americký sniper / American Sniper (2014)

Příspěvekod jack86 » 03 kvě 2016 20:31

Obrázek


Kód: Vybrat vše

http://www.csfd.cz/film/341884-americky-sniper/prehled/
http://www.imdb.com/title/tt2179136/combined



American.Sniper.2014.1080p.BluRay.DD5.1.EN.CZ.x264-HiDE

Kód: Vybrat vše

American.Sniper.2014.1080p.BluRay.DD5.1.EN.CZ.x264-HiDE
Format                      : Matroska
Format version              : Version 4 / Version 2
File size                   : 14.0 GiB
Duration                    : 2h 12mn
Overall bit rate            : 15.1 Mbps
Encoded date                : UTC 2010-02-22 21:41:31
Writing application         : mkvmerge v5.9.0 ('On The Loose') built on Dec  9 2012 15:37:01
Writing library             : libebml v1.3.0 + libmatroska v1.4.0

Video
ID                          : 7
Format                      : AVC
Format/Info                 : Advanced Video Codec
Format profile              : High@L4.1
Format settings, CABAC      : Yes
Format settings, ReFrames   : 5 frames
Codec ID                    : V_MPEG4/ISO/AVC
Duration                    : 2h 12mn
Bit rate                    : 13.7 Mbps
Nominal bit rate            : 14.5 Mbps
Width                       : 1 920 pixels
Height                      : 800 pixels
Display aspect ratio        : 2.40:1
Frame rate mode             : Constant
Frame rate                  : 23.976 (24000/1001) fps
Color space                 : YUV
Chroma subsampling          : 4:2:0
Bit depth                   : 8 bits
Scan type                   : Progressive
Bits/(Pixel*Frame)          : 0.372
Stream size                 : 12.7 GiB (91%)
Writing library             : x264 core 146 r2538 121396c
Encoding settings           : cabac=1 / ref=5 / deblock=1:-2:-2 / analyse=0x3:0x133 / me=umh / subme=11 / psy=1 / psy_rd=1.00:0.00 / mixed_ref=1 / me_range=26 / chroma_me=1 / trellis=2 / 8x8dct=1 / cqm=0 / deadzone=21,11 / fast_pskip=1 / chroma_qp_offset=-2 / threads=12 / lookahead_threads=12 / sliced_threads=1 / slices=12 / nr=0 / decimate=1 / interlaced=0 / bluray_compat=0 / constrained_intra=0 / bframes=12 / b_pyramid=2 / b_adapt=2 / b_bias=0 / direct=3 / weightb=0 / open_gop=0 / weightp=2 / keyint=240 / keyint_min=23 / scenecut=40 / intra_refresh=0 / rc_lookahead=0 / rc=abr / mbtree=0 / bitrate=14537 / ratetol=1.0 / qcomp=0.70 / qpmin=10 / qpmax=51 / qpstep=4 / vbv_maxrate=62500 / vbv_bufsize=78125 / nal_hrd=none / filler=0 / ip_ratio=1.40 / pb_ratio=1.30 / aq=1:1.50
Language                    : English
Default                     : Yes
Forced                      : No
Color range                 : Limited
Matrix coefficients         : BT.709

Audio #1
ID                          : 1
Format                      : AC-3
Format/Info                 : Audio Coding 3
Mode extension              : CM (complete main)
Format settings, Endianness : Big
Codec ID                    : A_AC3
Duration                    : 2h 12mn
Bit rate mode               : Constant
Bit rate                    : 640 Kbps
Channel(s)                  : 6 channels
Channel positions           : Front: L C R, Side: L R, LFE
Sampling rate               : 48.0 KHz
Frame rate                  : 31.250 fps (1536 spf)
Compression mode            : Lossy
Stream size                 : 607 MiB (4%)
Language                    : English
Default                     : No
Forced                      : No

Audio #2
ID                          : 2
Format                      : AC-3
Format/Info                 : Audio Coding 3
Mode extension              : CM (complete main)
Format settings, Endianness : Big
Codec ID                    : A_AC3
Duration                    : 2h 12mn
Bit rate mode               : Constant
Bit rate                    : 448 Kbps
Channel(s)                  : 6 channels
Channel positions           : Front: L C R, Side: L R, LFE
Sampling rate               : 48.0 KHz
Frame rate                  : 31.250 fps (1536 spf)
Compression mode            : Lossy
Stream size                 : 425 MiB (3%)
Language                    : Czech
Default                     : Yes
Forced                      : Yes

Text #1
ID                          : 3
Format                      : UTF-8
Codec ID                    : S_TEXT/UTF8
Codec ID/Info               : UTF-8 Plain Text
Title                       : forced
Language                    : Czech
Default                     : Yes
Forced                      : Yes

Text #2
ID                          : 4
Format                      : UTF-8
Codec ID                    : S_TEXT/UTF8
Codec ID/Info               : UTF-8 Plain Text
Language                    : Czech
Default                     : No
Forced                      : No

Text #3
ID                          : 5
Format                      : PGS
Muxing mode                 : zlib
Codec ID                    : S_HDMV/PGS
Codec ID/Info               : Picture based subtitle format used on BDs/HD-DVDs
Title                       : forced
Language                    : Czech
Default                     : No
Forced                      : No

Text #4
ID                          : 6
Format                      : PGS
Muxing mode                 : zlib
Codec ID                    : S_HDMV/PGS
Codec ID/Info               : Picture based subtitle format used on BDs/HD-DVDs
Language                    : Czech
Default                     : No
Forced                      : No

Menu
00:00:00.000                : en:00:00:00.000
00:10:15.240                : en:00:10:15.240
00:18:56.927                : en:00:18:56.927
00:28:27.581                : en:00:28:27.581
00:39:04.425                : en:00:39:04.425
00:50:57.638                : en:00:50:57.638
01:00:06.728                : en:01:00:06.728
01:07:56.447                : en:01:07:56.447
01:28:44.027                : en:01:28:44.027
01:37:24.714                : en:01:37:24.714
01:45:57.351                : en:01:45:57.351
01:54:44.002                : en:01:54:44.002
02:04:13.363                : en:02:04:13.363



Kód: Vybrat vše

http://file-share.top/file/191102/08014102sa-part1-rar
http://file-share.top/file/191105/08014102sa-part2-rar
http://file-share.top/file/191108/08014102sa-part3-rar
http://file-share.top/file/191109/08014102sa-part4-rar
http://file-share.top/file/191111/08014102sa-part5-rar
http://file-share.top/file/191114/08014102sa-part6-rar
http://file-share.top/file/191118/08014102sa-part7-rar
http://file-share.top/file/191120/08014102sa-part8-rar




Upload 3% na opravu dat

no pass
social-bux.com/?ref=29
IMACRO PRO SOCIAL-BUX

Havlos
File-share linker
Příspěvky: 179
Registrován: 19 pro 2015 19:04

Re: Americký sniper / American Sniper (2014)

Příspěvekod Havlos » 30 kvě 2016 13:53

Americký sniper / American Sniper (2014)

Obrázek

Kód: Vybrat vše

http://www.csfd.cz/film/341884-americky-sniper/prehled/


American.Sniper.2014.1080p.BluRay.DD5.1.EN.CZ.x264-HiDE

Kód: Vybrat vše

American.Sniper.2014.1080p.BluRay.DD5.1.EN.CZ.x264-HiDE
Format                      : Matroska
Format version              : Version 4 / Version 2
File size                   : 14.0 GiB
Duration                    : 2h 12mn
Overall bit rate            : 15.1 Mbps
Encoded date                : UTC 2010-02-22 21:41:31
Writing application         : mkvmerge v5.9.0 ('On The Loose') built on Dec  9 2012 15:37:01
Writing library             : libebml v1.3.0 + libmatroska v1.4.0

Video
ID                          : 7
Format                      : AVC
Format/Info                 : Advanced Video Codec
Format profile              : High@L4.1
Format settings, CABAC      : Yes
Format settings, ReFrames   : 5 frames
Codec ID                    : V_MPEG4/ISO/AVC
Duration                    : 2h 12mn
Bit rate                    : 13.7 Mbps
Nominal bit rate            : 14.5 Mbps
Width                       : 1 920 pixels
Height                      : 800 pixels
Display aspect ratio        : 2.40:1
Frame rate mode             : Constant
Frame rate                  : 23.976 (24000/1001) fps
Color space                 : YUV
Chroma subsampling          : 4:2:0
Bit depth                   : 8 bits
Scan type                   : Progressive
Bits/(Pixel*Frame)          : 0.372
Stream size                 : 12.7 GiB (91%)
Writing library             : x264 core 146 r2538 121396c
Encoding settings           : cabac=1 / ref=5 / deblock=1:-2:-2 / analyse=0x3:0x133 / me=umh / subme=11 / psy=1 / psy_rd=1.00:0.00 / mixed_ref=1 / me_range=26 / chroma_me=1 / trellis=2 / 8x8dct=1 / cqm=0 / deadzone=21,11 / fast_pskip=1 / chroma_qp_offset=-2 / threads=12 / lookahead_threads=12 / sliced_threads=1 / slices=12 / nr=0 / decimate=1 / interlaced=0 / bluray_compat=0 / constrained_intra=0 / bframes=12 / b_pyramid=2 / b_adapt=2 / b_bias=0 / direct=3 / weightb=0 / open_gop=0 / weightp=2 / keyint=240 / keyint_min=23 / scenecut=40 / intra_refresh=0 / rc_lookahead=0 / rc=abr / mbtree=0 / bitrate=14537 / ratetol=1.0 / qcomp=0.70 / qpmin=10 / qpmax=51 / qpstep=4 / vbv_maxrate=62500 / vbv_bufsize=78125 / nal_hrd=none / filler=0 / ip_ratio=1.40 / pb_ratio=1.30 / aq=1:1.50
Language                    : English
Default                     : Yes
Forced                      : No
Color range                 : Limited
Matrix coefficients         : BT.709

Audio #1
ID                          : 1
Format                      : AC-3
Format/Info                 : Audio Coding 3
Mode extension              : CM (complete main)
Format settings, Endianness : Big
Codec ID                    : A_AC3
Duration                    : 2h 12mn
Bit rate mode               : Constant
Bit rate                    : 640 Kbps
Channel(s)                  : 6 channels
Channel positions           : Front: L C R, Side: L R, LFE
Sampling rate               : 48.0 KHz
Frame rate                  : 31.250 fps (1536 spf)
Compression mode            : Lossy
Stream size                 : 607 MiB (4%)
Language                    : English
Default                     : No
Forced                      : No

Audio #2
ID                          : 2
Format                      : AC-3
Format/Info                 : Audio Coding 3
Mode extension              : CM (complete main)
Format settings, Endianness : Big
Codec ID                    : A_AC3
Duration                    : 2h 12mn
Bit rate mode               : Constant
Bit rate                    : 448 Kbps
Channel(s)                  : 6 channels
Channel positions           : Front: L C R, Side: L R, LFE
Sampling rate               : 48.0 KHz
Frame rate                  : 31.250 fps (1536 spf)
Compression mode            : Lossy
Stream size                 : 425 MiB (3%)
Language                    : Czech
Default                     : Yes
Forced                      : Yes

Text #1
ID                          : 3
Format                      : UTF-8
Codec ID                    : S_TEXT/UTF8
Codec ID/Info               : UTF-8 Plain Text
Title                       : forced
Language                    : Czech
Default                     : Yes
Forced                      : Yes

Text #2
ID                          : 4
Format                      : UTF-8
Codec ID                    : S_TEXT/UTF8
Codec ID/Info               : UTF-8 Plain Text
Language                    : Czech
Default                     : No
Forced                      : No

Text #3
ID                          : 5
Format                      : PGS
Muxing mode                 : zlib
Codec ID                    : S_HDMV/PGS
Codec ID/Info               : Picture based subtitle format used on BDs/HD-DVDs
Title                       : forced
Language                    : Czech
Default                     : No
Forced                      : No

Text #4
ID                          : 6
Format                      : PGS
Muxing mode                 : zlib
Codec ID                    : S_HDMV/PGS
Codec ID/Info               : Picture based subtitle format used on BDs/HD-DVDs
Language                    : Czech
Default                     : No
Forced                      : No

Menu
00:00:00.000                : en:00:00:00.000
00:10:15.240                : en:00:10:15.240
00:18:56.927                : en:00:18:56.927
00:28:27.581                : en:00:28:27.581
00:39:04.425                : en:00:39:04.425
00:50:57.638                : en:00:50:57.638
01:00:06.728                : en:01:00:06.728
01:07:56.447                : en:01:07:56.447
01:28:44.027                : en:01:28:44.027
01:37:24.714                : en:01:37:24.714
01:45:57.351                : en:01:45:57.351
01:54:44.002                : en:01:54:44.002
02:04:13.363                : en:02:04:13.363


Kód: Vybrat vše

http://file-share.top/file/205207/americkysniper1080p-part1-rar
http://file-share.top/file/205208/americkysniper1080p-part2-rar
http://file-share.top/file/205210/americkysniper1080p-part3-rar
http://file-share.top/file/205211/americkysniper1080p-part4-rar
http://file-share.top/file/205212/americkysniper1080p-part5-rar
http://file-share.top/file/205213/americkysniper1080p-part6-rar
http://file-share.top/file/205214/americkysniper1080p-part7-rar
http://file-share.top/file/205215/americkysniper1080p-part8-rar


Zpět na “Blu-ray”

Kdo je online

Uživatelé prohlížející si toto fórum: Žádní registrovaní uživatelé a 1 host