Zootopia / Zootropolis: Město zvířat (2016)

Plnohodnotné Blu-ray kopie originalu
Netříděná sekce. Filmy s dabingem i bez a ostatní
Pravidla fóra
► Zákaz vytváření duplicitních témat, používejte funkci HLEDAT
► Témata musí obsahovat český i anglický název a rok uvedení na trh | Příklad: Skála / The Rock (1996)
► Můžete vložit obrázky. Je možnost vložit jako přílohu a poté umístit do příspěvku (vyhnete se tím tomu, že bude smazán ze serveru který ho sdílí)
► Aspoň jeden odkaz na filmovou databázi, nejlépe na ČSFD do [CODE]
► Vložte stručný popis. Nemusíte o filmu, ale hlavně o kvalitě.
► Odkazy na stáhnutí musí být umístěny do [CODE]
► Přispívat bez čekání na schválení může pouze skupina File-share linker, kam můžete požádat o vstup nebo Vás tam sami na základě Vašich příspěvků zařadíme
jack86
File-share linker
Příspěvky: 76
Registrován: 09 úno 2016 05:47

Zootopia / Zootropolis: Město zvířat (2016)

Příspěvekod jack86 » 20 kvě 2016 20:01

Obrázek


Kód: Vybrat vše

http://www.csfd.cz/film/407365-zootropolis-mesto-zvirat/prehled/
http://www.imdb.com/title/tt2948356/combined



Zootopia.2016.1080p.BluRay.x264.DTS-HD.MA.7.1-RARBG + titulky

Kód: Vybrat vše

Zootopia.2016.1080p.BluRay.x264.DTS-HD.MA.7.1-RARBG
Format                      : Matroska
Format version              : Version 4 / Version 2
File size                   : 7.87 GiB
Duration                    : 1h 48mn
Overall bit rate            : 10.4 Mbps
Movie name                  : Zootopia.2016.1080p.BluRay.x264.DTS-HD.MA.7.1-RARBG
Encoded date                : UTC 2016-05-20 03:47:00
Writing application         : mkvmerge v9.1.0 ('Little Earthquakes') 64bit
Writing library             : libebml v1.3.3 + libmatroska v1.4.4
Cover                       : Yes
Attachments                 : small_cover.jpg / small_cover_land.jpg / cover.jpg / cover_land.jpg

Video
ID                          : 1
Format                      : AVC
Format/Info                 : Advanced Video Codec
Format profile              : High@L4.1
Format settings, CABAC      : Yes
Format settings, ReFrames   : 5 frames
Codec ID                    : V_MPEG4/ISO/AVC
Duration                    : 1h 48mn
Nominal bit rate            : 5 697 Kbps
Width                       : 1 920 pixels
Height                      : 808 pixels
Display aspect ratio        : 2.40:1
Frame rate mode             : Constant
Frame rate                  : 23.976 fps
Color space                 : YUV
Chroma subsampling          : 4:2:0
Bit depth                   : 8 bits
Scan type                   : Progressive
Bits/(Pixel*Frame)          : 0.153
Title                       : Zootopia.2016.1080p.BluRay.x264.DTS-HD.MA.7.1-RARBG
Writing library             : x264 core 148 r2692 64f4e24
Encoding settings           : cabac=1 / ref=5 / deblock=1:0:0 / analyse=0x3:0x133 / me=umh / subme=7 / psy=1 / psy_rd=1.00:0.00 / mixed_ref=1 / me_range=16 / chroma_me=1 / trellis=1 / 8x8dct=1 / cqm=0 / deadzone=21,11 / fast_pskip=0 / chroma_qp_offset=-2 / threads=18 / lookahead_threads=3 / sliced_threads=0 / nr=0 / decimate=1 / interlaced=0 / bluray_compat=0 / constrained_intra=0 / bframes=3 / b_pyramid=2 / b_adapt=1 / b_bias=0 / direct=1 / weightb=1 / open_gop=0 / weightp=2 / keyint=250 / keyint_min=23 / scenecut=40 / intra_refresh=0 / rc_lookahead=40 / rc=2pass / mbtree=1 / bitrate=5697 / ratetol=1.0 / qcomp=0.60 / qpmin=0 / qpmax=69 / qpstep=4 / cplxblur=20.0 / qblur=0.5 / ip_ratio=1.40 / aq=1:1.00
Language                    : English
Default                     : Yes
Forced                      : No

Audio
ID                          : 2
Format                      : DTS
Format/Info                 : Digital Theater Systems
Format profile              : MA / Core
Mode                        : 16
Format settings, Endianness : Big
Codec ID                    : A_DTS
Duration                    : 1h 48mn
Bit rate mode               : Variable / Constant
Bit rate                    : Unknown / 1 509 Kbps
Channel(s)                  : 8 channels / 6 channels
Channel positions           : Front: L C R, Side: L R, Back: L R, LFE / Front: L C R, Side: L R, LFE
Sampling rate               : 48.0 KHz
Frame rate                  : 93.750 fps (512 spf)
Bit depth                   : 24 bits
Compression mode            : Lossless / Lossy
Title                       : Zootopia.2016.1080p.BluRay.x264.DTS-HD.MA.7.1-RARBG
Language                    : English
Default                     : Yes
Forced                      : No

Text #1
ID                          : 3
Format                      : PGS
Muxing mode                 : zlib
Codec ID                    : S_HDMV/PGS
Codec ID/Info               : Picture based subtitle format used on BDs/HD-DVDs
Title                       : English-PGS
Language                    : English
Default                     : No
Forced                      : No

Text #2
ID                          : 4
Format                      : PGS
Muxing mode                 : zlib
Codec ID                    : S_HDMV/PGS
Codec ID/Info               : Picture based subtitle format used on BDs/HD-DVDs
Title                       : English-SDH-PGS
Language                    : English
Default                     : No
Forced                      : No

Text #3
ID                          : 5
Format                      : PGS
Muxing mode                 : zlib
Codec ID                    : S_HDMV/PGS
Codec ID/Info               : Picture based subtitle format used on BDs/HD-DVDs
Title                       : French-PGS
Language                    : French
Default                     : No
Forced                      : No

Text #4
ID                          : 6
Format                      : PGS
Muxing mode                 : zlib
Codec ID                    : S_HDMV/PGS
Codec ID/Info               : Picture based subtitle format used on BDs/HD-DVDs
Title                       : Spanish-PGS
Language                    : Spanish
Default                     : No
Forced                      : No

Menu
00:00:00.000                : en:00:00:00.000
00:00:59.559                : en:00:00:59.559
00:05:50.100                : en:00:05:50.100
00:10:05.563                : en:00:10:05.563
00:14:31.537                : en:00:14:31.537
00:18:24.019                : en:00:18:24.019
00:26:03.353                : en:00:26:03.353
00:30:57.439                : en:00:30:57.439
00:37:07.100                : en:00:37:07.100
00:40:43.441                : en:00:40:43.441
00:44:31.752                : en:00:44:31.752
00:51:40.430                : en:00:51:40.430
00:55:40.378                : en:00:55:40.378
01:00:48.269                : en:01:00:48.269
01:03:37.855                : en:01:03:37.855
01:09:19.822                : en:01:09:19.822
01:13:39.165                : en:01:13:39.165
01:17:07.372                : en:01:17:07.372
01:21:52.366                : en:01:21:52.366
01:28:19.169                : en:01:28:19.169
01:32:43.433                : en:01:32:43.433
01:36:12.141                : en:01:36:12.141



Kód: Vybrat vše

http://file-share.top/file/200347/r086102z-part1-rar
http://file-share.top/file/200349/r086102z-part2-rar
http://file-share.top/file/200351/r086102z-part3-rar
http://file-share.top/file/200355/r086102z-part4-rar
http://file-share.top/file/200356/r086102z-part5-rar




Upload 3% na opravu dat

no pass
social-bux.com/?ref=29
IMACRO PRO SOCIAL-BUX

jack86
File-share linker
Příspěvky: 76
Registrován: 09 úno 2016 05:47

Re: Zootopia / Zootropolis: Město zvířat (2016)

Příspěvekod jack86 » 21 kvě 2016 09:25

Obrázek


Kód: Vybrat vše

http://www.csfd.cz/film/407365-zootropolis-mesto-zvirat/prehled/
http://www.imdb.com/title/tt2948356/combined



Zootopia.2016.1080p.BluRay.REMUX.AVC.DTS-HD.MA.7.1-RARBG + titulky

Kód: Vybrat vše

Zootopia.2016.1080p.BluRay.REMUX.AVC.DTS-HD.MA.7.1-RARBG
Format                      : Matroska
Format version              : Version 4 / Version 2
File size                   : 24.1 GiB
Duration                    : 1h 48mn
Overall bit rate mode       : Variable
Overall bit rate            : 31.7 Mbps
Movie name                  : RARBG.COM - Zootopia.2016.1080p.BluRay.REMUX.AVC.DTS-HD.MA.7.1-RARBG
Encoded date                : UTC 2016-05-20 03:43:38
Writing application         : mkvmerge v9.1.0 ('Little Earthquakes') 64bit
Writing library             : libebml v1.3.3 + libmatroska v1.4.4
Cover                       : Yes
Attachments                 : small_cover.jpg / small_cover_land.jpg / cover.jpg / cover_land.jpg

Video
ID                          : 1
Format                      : AVC
Format/Info                 : Advanced Video Codec
Format profile              : High@L4.1
Format settings, CABAC      : Yes
Format settings, ReFrames   : 4 frames
Codec ID                    : V_MPEG4/ISO/AVC
Duration                    : 1h 48mn
Bit rate mode               : Variable
Maximum bit rate            : 36.0 Mbps
Width                       : 1 920 pixels
Height                      : 1 080 pixels
Display aspect ratio        : 16:9
Frame rate mode             : Constant
Frame rate                  : 23.976 (24000/1001) fps
Color space                 : YUV
Chroma subsampling          : 4:2:0
Bit depth                   : 8 bits
Scan type                   : Progressive
Title                       : Zootopia.2016.1080p.BluRay.REMUX.AVC.DTS-HD.MA.7.1-RARBG
Language                    : English
Default                     : No
Forced                      : No

Audio #1
ID                          : 2
Format                      : DTS
Format/Info                 : Digital Theater Systems
Format profile              : MA / Core
Mode                        : 16
Format settings, Endianness : Big
Codec ID                    : A_DTS
Duration                    : 1h 48mn
Bit rate mode               : Variable / Constant
Bit rate                    : Unknown / 1 509 Kbps
Channel(s)                  : 8 channels / 6 channels
Channel positions           : Front: L C R, Side: L R, Back: L R, LFE / Front: L C R, Side: L R, LFE
Sampling rate               : 48.0 KHz
Frame rate                  : 93.750 fps (512 spf)
Bit depth                   : 24 bits
Compression mode            : Lossless / Lossy
Title                       : Zootopia.2016.1080p.BluRay.REMUX.AVC.DTS-HD.MA.7.1-RARBG
Language                    : English
Default                     : Yes
Forced                      : No

Audio #2
ID                          : 3
Format                      : DTS
Format/Info                 : Digital Theater Systems
Mode                        : 16
Format settings, Endianness : Big
Codec ID                    : A_DTS
Duration                    : 1h 48mn
Bit rate mode               : Constant
Bit rate                    : 1 509 Kbps
Channel(s)                  : 6 channels
Channel positions           : Front: L C R, Side: L R, LFE
Sampling rate               : 48.0 KHz
Frame rate                  : 93.750 fps (512 spf)
Bit depth                   : 24 bits
Compression mode            : Lossy
Stream size                 : 1.14 GiB (5%)
Title                       : Zootopia.2016.1080p.BluRay.REMUX.AVC.DTS-HD.MA.7.1-RARBG
Language                    : English
Default                     : No
Forced                      : No

Audio #3
ID                          : 4
Format                      : AC-3
Format/Info                 : Audio Coding 3
Format profile              : Dolby Digital
Mode extension              : CM (complete main)
Format settings, Endianness : Big
Codec ID                    : A_AC3
Duration                    : 1h 48mn
Bit rate mode               : Constant
Bit rate                    : 320 Kbps
Channel(s)                  : 2 channels
Channel positions           : Front: L R
Sampling rate               : 48.0 KHz
Frame rate                  : 31.250 fps (1536 spf)
Compression mode            : Lossy
Stream size                 : 248 MiB (1%)
Title                       : Zootopia.2016.1080p.BluRay.REMUX.AVC.DTS-HD.MA.7.1-RARBG
Language                    : English
Default                     : No
Forced                      : No

Audio #4
ID                          : 5
Format                      : AC-3
Format/Info                 : Audio Coding 3
Mode extension              : CM (complete main)
Format settings, Endianness : Big
Codec ID                    : A_AC3
Duration                    : 1h 48mn
Bit rate mode               : Constant
Bit rate                    : 640 Kbps
Channel(s)                  : 6 channels
Channel positions           : Front: L C R, Side: L R, LFE
Sampling rate               : 48.0 KHz
Frame rate                  : 31.250 fps (1536 spf)
Compression mode            : Lossy
Stream size                 : 497 MiB (2%)
Title                       : Zootopia.2016.1080p.BluRay.REMUX.AVC.DTS-HD.MA.7.1-RARBG
Language                    : French
Default                     : No
Forced                      : No

Audio #5
ID                          : 6
Format                      : AC-3
Format/Info                 : Audio Coding 3
Mode extension              : CM (complete main)
Format settings, Endianness : Big
Codec ID                    : A_AC3
Duration                    : 1h 48mn
Bit rate mode               : Constant
Bit rate                    : 640 Kbps
Channel(s)                  : 6 channels
Channel positions           : Front: L C R, Side: L R, LFE
Sampling rate               : 48.0 KHz
Frame rate                  : 31.250 fps (1536 spf)
Compression mode            : Lossy
Stream size                 : 497 MiB (2%)
Title                       : Zootopia.2016.1080p.BluRay.REMUX.AVC.DTS-HD.MA.7.1-RARBG
Language                    : Spanish
Default                     : No
Forced                      : No

Text #1
ID                          : 7
Format                      : PGS
Muxing mode                 : zlib
Codec ID                    : S_HDMV/PGS
Codec ID/Info               : Picture based subtitle format used on BDs/HD-DVDs
Title                       : English-PGS
Language                    : English
Default                     : No
Forced                      : No

Text #2
ID                          : 8
Format                      : PGS
Muxing mode                 : zlib
Codec ID                    : S_HDMV/PGS
Codec ID/Info               : Picture based subtitle format used on BDs/HD-DVDs
Title                       : English-SDH-PGS
Language                    : English
Default                     : No
Forced                      : No

Text #3
ID                          : 9
Format                      : PGS
Muxing mode                 : zlib
Codec ID                    : S_HDMV/PGS
Codec ID/Info               : Picture based subtitle format used on BDs/HD-DVDs
Title                       : French-PGS
Language                    : French
Default                     : No
Forced                      : No

Text #4
ID                          : 10
Format                      : PGS
Muxing mode                 : zlib
Codec ID                    : S_HDMV/PGS
Codec ID/Info               : Picture based subtitle format used on BDs/HD-DVDs
Title                       : Spanish-PGS
Language                    : Spanish
Default                     : No
Forced                      : No

Menu
00:00:00.000                : en:Chapter 01
00:00:59.559                : en:Chapter 02
00:05:50.099                : en:Chapter 03
00:10:05.563                : en:Chapter 04
00:14:31.537                : en:Chapter 05
00:18:24.019                : en:Chapter 06
00:26:03.353                : en:Chapter 07
00:30:57.438                : en:Chapter 08
00:37:07.099                : en:Chapter 09
00:40:43.441                : en:Chapter 10
00:44:31.752                : en:Chapter 11
00:51:40.430                : en:Chapter 12
00:55:40.378                : en:Chapter 13
01:00:48.269                : en:Chapter 14
01:03:37.855                : en:Chapter 15
01:09:19.822                : en:Chapter 16
01:13:39.164                : en:Chapter 17
01:17:07.372                : en:Chapter 18
01:21:52.365                : en:Chapter 19
01:28:19.168                : en:Chapter 20
01:32:43.432                : en:Chapter 21
01:36:12.141                : en:Chapter 22



Kód: Vybrat vše

http://file-share.top/file/200492/rr08016102z-part01-rar
http://file-share.top/file/200494/rr08016102z-part02-rar
http://file-share.top/file/200496/rr08016102z-part03-rar
http://file-share.top/file/200498/rr08016102z-part04-rar
http://file-share.top/file/200500/rr08016102z-part05-rar
http://file-share.top/file/200504/rr08016102z-part06-rar
http://file-share.top/file/200506/rr08016102z-part07-rar
http://file-share.top/file/200509/rr08016102z-part08-rar
http://file-share.top/file/200514/rr08016102z-part09-rar
http://file-share.top/file/200520/rr08016102z-part10-rar
http://file-share.top/file/200523/rr08016102z-part11-rar
http://file-share.top/file/200525/rr08016102z-part12-rar
http://file-share.top/file/200527/rr08016102z-part13-rar




Upload 3% na opravu dat

no pass
social-bux.com/?ref=29
IMACRO PRO SOCIAL-BUX

watchdogs11
File-share linker
Příspěvky: 505
Registrován: 01 bře 2016 15:32

Re: Zootopia / Zootropolis: Město zvířat (2016)

Příspěvekod watchdogs11 » 15 čer 2016 07:57

zootropolis.jpg
zootropolis.jpg (47.37 KiB) Zobrazeno 1481 x


Kód: Vybrat vše

http://www.csfd.cz/film/407365-zootropolis-mesto-zvirat/prehled/

Zootropolis: Město zvířat 1080p

Jazyk: 2.0 CZ, DTS 5.1 ENG
Titulky: CZ

Kód: Vybrat vše

Format                                   : Matroska
Format version                           : Version 2
File size                                : 10.4 GiB
Duration                                 : 1h 48mn
Overall bit rate                         : 13.7 Mbps
Encoded date                             : UTC 2016-06-08 20:26:16
Writing application                      : mkvmerge v9.1.0 ('Little Earthquakes') 32bit
Writing library                          : libebml v1.3.3 + libmatroska v1.4.4
DURATION                                 : 01:39:02.234000000
NUMBER_OF_FRAMES                         : 1749
NUMBER_OF_BYTES                          : 52082
_STATISTICS_WRITING_APP                  : mkvmerge v9.1.0 ('Little Earthquakes') 32bit
_STATISTICS_WRITING_DATE_UTC             : 2016-06-08 20:26:16
_STATISTICS_TAGS                         : BPS DURATION NUMBER_OF_FRAMES NUMBER_OF_BYTES

Video
ID                                       : 1
Format                                   : AVC
Format/Info                              : Advanced Video Codec
Format profile                           : High@L4.1
Format settings, CABAC                   : Yes
Format settings, ReFrames                : 5 frames
Codec ID                                 : V_MPEG4/ISO/AVC
Duration                                 : 1h 48mn
Bit rate                                 : 11.7 Mbps
Width                                    : 1 920 pixels
Height                                   : 804 pixels
Display aspect ratio                     : 2.40:1
Frame rate mode                          : Constant
Frame rate                               : 23.976 fps
Color space                              : YUV
Chroma subsampling                       : 4:2:0
Bit depth                                : 8 bits
Scan type                                : Progressive
Bits/(Pixel*Frame)                       : 0.316
Stream size                              : 8.87 GiB (86%)
Title                                    : HiFi
Writing library                          : x264 core 148 r2692 64f4e24
Encoding settings                        : cabac=1 / ref=5 / deblock=1:-3:-3 / analyse=0x3:0x133 / me=umh / subme=11 / psy=1 / psy_rd=0.80:0.00 / mixed_ref=1 / me_range=48 / chroma_me=1 / trellis=2 / 8x8dct=1 / cqm=0 / deadzone=21,11 / fast_pskip=0 / chroma_qp_offset=-2 / threads=8 / lookahead_threads=1 / sliced_threads=0 / nr=0 / decimate=0 / interlaced=0 / bluray_compat=0 / constrained_intra=0 / bframes=8 / b_pyramid=2 / b_adapt=2 / b_bias=0 / direct=3 / weightb=1 / open_gop=0 / weightp=2 / keyint=250 / keyint_min=23 / scenecut=40 / intra_refresh=0 / rc_lookahead=150 / rc=crf / mbtree=0 / crf=17.2 / qcomp=0.70 / qpmin=0 / qpmax=69 / qpstep=4 / vbv_maxrate=50000 / vbv_bufsize=62500 / crf_max=0.0 / nal_hrd=none / filler=0 / ip_ratio=1.30 / pb_ratio=1.20 / aq=2:1.00
Language                                 : English
Default                                  : Yes
Forced                                   : No
DURATION                                 : 01:48:32.423000000
NUMBER_OF_FRAMES                         : 156142
NUMBER_OF_BYTES                          : 9747271168
_STATISTICS_WRITING_APP                  : mkvmerge v9.1.0 ('Little Earthquakes') 32bit
_STATISTICS_WRITING_DATE_UTC             : 2016-06-08 20:26:16
_STATISTICS_TAGS                         : BPS DURATION NUMBER_OF_FRAMES NUMBER_OF_BYTES

Audio #1
ID                                       : 2
Format                                   : AC-3
Format/Info                              : Audio Coding 3
Mode extension                           : CM (complete main)
Format settings, Endianness              : Big
Codec ID                                 : A_AC3
Duration                                 : 1h 48mn
Bit rate mode                            : Constant
Bit rate                                 : 192 Kbps
Channel count                            : 2 channels
Channel positions                        : Front: L R
Sampling rate                            : 48.0 KHz
Bit depth                                : 16 bits
Compression mode                         : Lossy
Stream size                              : 149 MiB (1%)
Language                                 : Czech
Default                                  : Yes
Forced                                   : No

Audio #2
ID                                       : 3
Format                                   : DTS
Format/Info                              : Digital Theater Systems
Mode                                     : 16
Format settings, Endianness              : Big
Codec ID                                 : A_DTS
Duration                                 : 1h 48mn
Bit rate mode                            : Constant
Bit rate                                 : 1 509 Kbps
Channel count                            : 6 channels
Channel positions                        : Front: L C R, Side: L R, LFE
Sampling rate                            : 48.0 KHz
Bit depth                                : 24 bits
Compression mode                         : Lossy
Stream size                              : 1.14 GiB (11%)
Language                                 : English
Default                                  : No
Forced                                   : No

Text #1
ID                                       : 4
Format                                   : UTF-8
Codec ID                                 : S_TEXT/UTF8
Codec ID/Info                            : UTF-8 Plain Text
Title                                    : forced
Language                                 : Czech
Default                                  : Yes
Forced                                   : Yes

Text #2
ID                                       : 5
Format                                   : UTF-8
Codec ID                                 : S_TEXT/UTF8
Codec ID/Info                            : UTF-8 Plain Text
Language                                 : Czech
Default                                  : No
Forced                                   : No


Kód: Vybrat vše

http://file-share.top/file/213247/zootropolis-mesto-zvirat-zootopia-2016-1080p-cz-dabing-part1-rar
http://file-share.top/file/213248/zootropolis-mesto-zvirat-zootopia-2016-1080p-cz-dabing-part2-rar
http://file-share.top/file/213249/zootropolis-mesto-zvirat-zootopia-2016-1080p-cz-dabing-part3-rar
http://file-share.top/file/213250/zootropolis-mesto-zvirat-zootopia-2016-1080p-cz-dabing-part4-rar
http://file-share.top/file/213252/zootropolis-mesto-zvirat-zootopia-2016-1080p-cz-dabing-part5-rar
http://file-share.top/file/213253/zootropolis-mesto-zvirat-zootopia-2016-1080p-cz-dabing-part6-rar

watchdogs11
File-share linker
Příspěvky: 505
Registrován: 01 bře 2016 15:32

Re: Zootopia / Zootropolis: Město zvířat (2016)

Příspěvekod watchdogs11 » 23 čer 2016 13:58

Obrázek

Kód: Vybrat vše

http://www.csfd.cz/film/407365-zootropolis-mesto-zvirat/prehled/

Zootropolis: Město zvířat 1080p CZ-SK

Jazyk: 5.1 CZ, 5.1 SK, DTS 5.1 ENG
Titulky: CZ,

Kód: Vybrat vše

Format                      : Matroska
Format version              : Version 4 / Version 2
File size                   : 10.9 GiB
Duration                    : 1h 48mn
Overall bit rate            : 14.3 Mbps
Movie name                  : Zootropolis.2016.BRRip.x264.AC3.CZ.SK-microbes
Encoded date                : UTC 2016-06-22 07:53:10
Writing application         : mkvmerge v9.1.0 ('Little Earthquakes') 64bit
Writing library             : libebml v1.3.3 + libmatroska v1.4.4

Video
ID                          : 4
Format                      : AVC
Format/Info                 : Advanced Video Codec
Format profile              : High@L4.1
Format settings, CABAC      : Yes
Format settings, ReFrames   : 5 frames
Codec ID                    : V_MPEG4/ISO/AVC
Duration                    : 1h 48mn
Bit rate                    : 12.0 Mbps
Width                       : 1 920 pixels
Height                      : 804 pixels
Display aspect ratio        : 2.40:1
Frame rate mode             : Constant
Frame rate                  : 23.976 (24000/1001) fps
Color space                 : YUV
Chroma subsampling          : 4:2:0
Bit depth                   : 8 bits
Scan type                   : Progressive
Bits/(Pixel*Frame)          : 0.324
Stream size                 : 9.08 GiB (84%)
Title                       : HiFi
Writing library             : x264 core 148 r2692 64f4e24
Encoding settings           : cabac=1 / ref=5 / deblock=1:-3:-3 / analyse=0x3:0x133 / me=umh / subme=11 / psy=1 / psy_rd=0.80:0.00 / mixed_ref=1 / me_range=48 / chroma_me=1 / trellis=2 / 8x8dct=1 / cqm=0 / deadzone=21,11 / fast_pskip=0 / chroma_qp_offset=-2 / threads=8 / lookahead_threads=1 / sliced_threads=0 / nr=0 / decimate=0 / interlaced=0 / bluray_compat=0 / constrained_intra=0 / bframes=8 / b_pyramid=2 / b_adapt=2 / b_bias=0 / direct=3 / weightb=1 / open_gop=0 / weightp=2 / keyint=250 / keyint_min=23 / scenecut=40 / intra_refresh=0 / rc_lookahead=150 / rc=crf / mbtree=0 / crf=17.2 / qcomp=0.70 / qpmin=0 / qpmax=69 / qpstep=4 / vbv_maxrate=50000 / vbv_bufsize=62500 / crf_max=0.0 / nal_hrd=none / filler=0 / ip_ratio=1.30 / pb_ratio=1.20 / aq=2:1.00
Language                    : English
Default                     : Yes
Forced                      : No

Audio #1
ID                          : 1
Format                      : AC-3
Format/Info                 : Audio Coding 3
Mode extension              : CM (complete main)
Format settings, Endianness : Big
Codec ID                    : A_AC3
Duration                    : 1h 48mn
Bit rate mode               : Constant
Bit rate                    : 448 Kbps
Channel(s)                  : 6 channels
Channel positions           : Front: L C R, Side: L R, LFE
Sampling rate               : 48.0 KHz
Frame rate                  : 31.250 fps (1536 spf)
Compression mode            : Lossy
Stream size                 : 348 MiB (3%)
Title                       : Surround
Language                    : Czech
Default                     : Yes
Forced                      : No

Audio #2
ID                          : 2
Format                      : AC-3
Format/Info                 : Audio Coding 3
Mode extension              : CM (complete main)
Format settings, Endianness : Big
Codec ID                    : A_AC3
Duration                    : 1h 48mn
Bit rate mode               : Constant
Bit rate                    : 384 Kbps
Channel(s)                  : 6 channels
Channel positions           : Front: L C R, Side: L R, LFE
Sampling rate               : 48.0 KHz
Frame rate                  : 31.250 fps (1536 spf)
Compression mode            : Lossy
Stream size                 : 298 MiB (3%)
Title                       : Surround
Language                    : Slovak
Default                     : No
Forced                      : No

Audio #3
ID                          : 5
Format                      : DTS
Format/Info                 : Digital Theater Systems
Mode                        : 16
Format settings, Endianness : Big
Codec ID                    : A_DTS
Duration                    : 1h 48mn
Bit rate mode               : Constant
Bit rate                    : 1 509 Kbps
Channel(s)                  : 6 channels
Channel positions           : Front: L C R, Side: L R, LFE
Sampling rate               : 48.0 KHz
Frame rate                  : 93.750 fps (512 spf)
Bit depth                   : 24 bits
Compression mode            : Lossy
Stream size                 : 1.14 GiB (11%)
Language                    : English
Default                     : No
Forced                      : No

Text #1
ID                          : 3
Format                      : UTF-8
Codec ID                    : S_TEXT/UTF8
Codec ID/Info               : UTF-8 Plain Text
Duration                    : 1h 34mn
Bit rate                    : 1 bps
Count of elements           : 49
Stream size                 : 1.17 KiB (0%)
Language                    : Czech
Default                     : Yes
Forced                      : Yes

Text #2
ID                          : 6
Format                      : UTF-8
Codec ID                    : S_TEXT/UTF8
Codec ID/Info               : UTF-8 Plain Text
Duration                    : 1h 34mn
Bit rate                    : 1 bps
Count of elements           : 49
Stream size                 : 1.17 KiB (0%)
Title                       : forced
Language                    : Czech
Default                     : No
Forced                      : Yes


Kód: Vybrat vše

http://file-share.top/file/219266/zootropolis-mesto-zvirat-2016-1080p-cz-sk-part1-rar
http://file-share.top/file/219268/zootropolis-mesto-zvirat-2016-1080p-cz-sk-part2-rar
http://file-share.top/file/219272/zootropolis-mesto-zvirat-2016-1080p-cz-sk-part3-rar
http://file-share.top/file/219274/zootropolis-mesto-zvirat-2016-1080p-cz-sk-part4-rar
http://file-share.top/file/219276/zootropolis-mesto-zvirat-2016-1080p-cz-sk-part5-rar
http://file-share.top/file/219278/zootropolis-mesto-zvirat-2016-1080p-cz-sk-part6-rar


Zpět na “Blu-ray”

Kdo je online

Uživatelé prohlížející si toto fórum: Žádní registrovaní uživatelé a 1 host